it arrow etmovies vikings s05e15 ethd gold.rush titans The Flash fgt 2018 ita star trek discovery español Birdbox bbc dtone vikings ETRG 2160p SUPERNATURAL bumblebee jurassic world fortitude a star is born mary poppins Van Helsing 1080p 2018 Gold Rush ita bohemian rhapsody fantastic beasts black mirror bandersnatch anal Midnight Texas ETTV Black mirror Evo aquaman ita 2018 macchine mortali sex tushy 18.12 1080p.mp4-ktr italian The big bang theory Bandersnatch arrow español bird box venom ita etrg the predator ddr venom you HINDI 2018 xxx Ralph Breaks the Internet first man mr robot en español Ray Donovan bohemian rhapsody ita hindi big bang theory español UHD The walking dead 1 1080p ıt 2017 Z nation game of thrones tushyraw 1080p.mp4-ktr wwe 0 evo 
Warning! Do not Download Without a VPN!
Your IP Address is .   Location is
Download and surf securely, stream unlimited and protect your personal data!
We strongly recommend using SpyOFF VPN!
Become Anonymous with SpyOFF
ETTV Recommended TV Shows
Counterpart.S02E04.WEB.H264-MEMENTO[ettv] torrent
Outlander.S04E09.WEB.H264-MEMENTO[ettv] torrent
Ray.Donovan.S06E10.WEBRip.x264-PBS[ettv] torrent
Escape.at.Dannemora.S01E07.WEBRip.x264-PBS[ettv] torrent

ETTV Recommended SD
Jackson.Bolt.2018.HDRip.XviD.AC3-EVO torrent
Ralph Breaks the Internet.2018.V2.DVDSCR.XviD.AC3-EVO[EtMovies] torrent
Green.Book.2018.DVDScr.Xvid.AC3.HQ.Hive-CM8 torrent
Ana.and.Bruno.2018.HDRip.XviD.AC3-EVO torrent

ETTV Recommended HD
The.Oath.2018.1080p.WEB-DL.DD5.1.H264-CMRG[EtHD] torrent
Social.Animals.2018.BluRay.1080p.HEVC.DTS-HD.MA5.1-DTOne torrent
Frenzy.2018.BluRay.1080p.HEVC.DTS-HD.MA5.1-DTOne torrent
22 Chaser 2018 BluRay 1080p HEVC DTS-HD MA5.1-DTOne torrent

ETTV Recommended UHD
Kingsman.The.Golden.Circle.2017.Multi.2160p.BluRay.x265.HDR.Atmos.7.1.[En+Hi]-DTOne torrent
John Wick Chapter 2 2017.Multi.UHD.2160p.Blu-ray.x265.HDR.Atmos.7.1.[En+Hi]-DTOne torrent
A.Beautiful.Planet.2016.UHD.BluRay.2160p.x265.HDR.DTS-X.7.1-DTOne torrent
Victor.Frankenstein.2015.UHD.2160p.HDR.UHDRip.x265.DTS-HD.MA.7.1-DTOne torrent

ETTV Recommended Cam
Aquaman.2018.HDTC.x264.AC3-ETRG torrent
Mary Poppins Returns.2018.HDCAM.XViD.AC3-ETRG torrent
The Mule 2018 HDCAM XViD.AC3-ETRG torrent
Bumblebee 2018 NEW HDTS x264 AC3-ETRG torrent

ETTV Recommended Foreign
Chappie.2015.Multi.2160p.UHD.BluRay.x265.HDR.Atmos.7.1[En+Hi]-DTOne torrent
Divergent.2014.Multi.2160p.UHD.BluRay.x265.HDR.DTS-HDMA.7.1[En+Hi]-DTOne torrent
SIMMBA.(2018).1-3.Desi.Pre.Rip.x264.AC3.DTOne torrent
Ishqeria (2018) [HINDI - 720p - WEB HDRip - x264 - DD 5.1 - ESub - 2GB] - MAZE torrent


Download Torrent "Green.Book.2018.DVDScr.Xvid.AC3.HQ.Hive-CM8"

IMDB Details
Description:

A working-class Italian-American bouncer becomes the driver of an African-American classical pianist on a tour of venues through the 1960s American South.

Genre:

Biography, Comedy, Drama, Music

Download Torrent (Magnet)
Download Torrent (File)
Seeds: 892
Leechers: 677
Completed: 4,471 
Last Checked: 29-12-2018 19:53:50


Loading...
Details
Title:Green.Book.2018.DVDScr.Xvid.AC3.HQ.Hive-CM8
Description:


http://prostylex.com/

http://www.imdb.com/title/tt6966692/

Green.Book.2018.DVDScr.Xvid.AC3.HQ.Hive-CM8

Thx Hive

CM8 Doing It Right The First Time :D

Source: DVDScr

Notes:
btw merry christmas and a happy new year!!
well, one year has passed and its that time of the year that everyone is waiting for.
SCREENER Time. 
As usual we love to share with friends all over the world.
This first one already played in the budget, so this is the best title to pick for now.

Since we lost our site/mail with no backup and with it all contacts gone,
its quite complicated to get things going this year.
We want to get things back as they were, but it will take time.

The whole system only works if people are helping us, it doesnt work without you.
We need your help this year more than ever, so plz come forward if you have a scr or access to it.
We like to have all scr-titles if possible, but it has to be secure for everyone,
we want to get them out safely as every year.
every title counts towards the goal. thx

General
Complete name                            : D:\Videos\Green.Book.2018.DVDScr.Xvid.AC3.HQ.Hive-CM8\Green.Book.2018.DVDScr.Xvid.AC3.HQ.Hive-CM8.avi
Format                                   : AVI
Format/Info                              : Audio Video Interleave
File size                                : 1.43 GiB
Duration                                 : 2 h 10 min
Overall bit rate                         : 1 572 kb/s
Writing application                      : Nandub v1.0rc2
Writing library                          : Nandub build 1853/release

Video
ID                                       : 0
Format                                   : MPEG-4 Visual
Format profile                           : Advanced [email protected]
Format settings                          : BVOP2 / QPel
Format settings, BVOP                    : 2
Format settings, QPel                    : Yes
Format settings, GMC                     : No warppoints
Format settings, Matrix                  : Default (H.263)
Muxing mode                              : Packed bitstream
Codec ID                                 : XVID
Codec ID/Hint                            : XviD
Duration                                 : 2 h 10 min
Bit rate                                 : 1 307 kb/s
Width                                    : 720 pixels
Height                                   : 368 pixels
Display aspect ratio                     : 1.957
Frame rate                               : 23.976 (24000/1001) FPS
Color space                              : YUV
Chroma subsampling                       : 4:2:0
Bit depth                                : 8 bits
Scan type                                : Progressive
Compression mode                         : Lossy
Bits/(Pixel*Frame)                       : 0.206
Stream size                              : 1.19 GiB (83%)
Writing library                          : XviD 1.2.1 (UTC 2008-12-04)

Audio
ID                                       : 1
Format                                   : AC-3
Format/Info                              : Audio Coding 3
Commercial name                          : Dolby Digital
Codec ID                                 : 2000
Duration                                 : 2 h 10 min
Bit rate mode                            : Constant
Bit rate                                 : 256 kb/s
Channel(s)                               : 2 channels
Channel layout                           : L R
Sampling rate                            : 48.0 kHz
Frame rate                               : 31.250 FPS (1536 SPF)
Bit depth                                : 16 bits
Compression mode                         : Lossy
Stream size                              : 238 MiB (16%)
Alignment                                : Split accross interleaves
Interleave, duration                     : 42  ms (1.00 video frame)
Interleave, preload duration             : 500  ms
Service kind                             : Complete Main

Category:Movies > XviD
Lang:English  English
Total Size:1.43 GB
Info Hash:de90d217ad85925fc22f1d5c5aabb64fce9f4bbb
Added By:Silmarillion
Date Added:29-12-2018 19:53:41

  

Files

File List: 
 File Size
Green.Book.2018.DVDScr.Xvid.AC3.HQ.Hive-CM8.avi1.43 GB
Green.Book.2018.DVDScr.Xvid.AC3.HQ.Hive-CM8.nfo5.13 kB
sample.avi6 MB
Torrent Downloaded From ProstyleX.com.txt38.00 B



Loading...
Comments

There are currently no comments. Be the first one to write something !

Disclaimer: None of the files shown here are actually hosted or transmitted by this server. The links are provided solely by this site's users. The site moderation is also a service provided by the site's users. The administrator of this site (ettv.tv) cannot be held responsible for what its users post, or any other actions of its users. You may not use this site to distribute or download any material when you do not have the legal rights to do so. It is your own responsibility to adhere to these terms.

Sitemap